#TITLE:Aquarius;
#SUBTITLE:Castlevania III;
#ARTIST:Kinuyo Yamashita;
#TITLETRANSLIT:;
#SUBTITLETRANSLIT:;
#ARTISTTRANSLIT:;
#CREDIT:TheEvilHobo;
#BANNER:Aquarius.jpg;
#BACKGROUND:Aquarius-bg.jpg;
#LYRICSPATH:;
#CDTITLE:!TheEvilHoboOriginal.png;
#MUSIC:Aquarius.mp3;
#OFFSET:0.000;
#SAMPLESTART:52.162;
#SAMPLELENGTH:12.000;
#SELECTABLE:YES;
#BPMS:0.000=128.800;
#STOPS:;
#BGCHANGES:;
// cache tags:
#FIRSTBEAT:0.000;
#LASTBEAT:176.000;
#SONGFILENAME:Songs/Music V.I.P ^_^/Aquarius (The Evil Hobo)/Aquarius.sm;
#HASMUSIC:1;
#HASBANNER:1;
#MUSICLENGTH:83.894;
// end cache tags

//---------------dance-single - ----------------
#NOTES:
     dance-single:
     :
     Hard:
     11:
     1.000,1.000,1.000,0.381,1.000,547.000,152.000,32.000,0.000,0.000:

0011
1000
0100
1000
0001
1000
0010
1000
0100
1000
0010
1000
0001
1100
0010
1000
,
0011
0100
0001
0100
0010
0100
1000
0100
0010
0100
0001
0100
0010
0101
1000
0010
,
1100
0001
0010
0001
1000
0001
0100
0001
0010
0001
0100
0001
1000
0011
0100
0001
,
1100
0000
0010
0000
0100
0000
0010
0000
0001
0000
0100
0000
0010
0000
0100
0000
1001
0000
0000
0000
1001
0000
0000
0000
0010
0100
0010
0000
0010
0000
0010
0000
,
0110
1000
0000
0011
0000
0100
2002
0000
0000
3003
0101
0000
0110
0000
1010
0000
,
0101
0010
0000
0110
0000
0100
2020
0000
0000
3030
1100
0000
0110
0000
0011
0000
,
0110
1000
0000
1001
0000
0100
0011
0100
0000
1010
0000
0100
0011
0000
1100
0000
,
0110
0000
0000
0202
0000
0000
0303
0000
0010
0010
0100
0100
1000
1000
0100
0100
,
0011
0100
0000
1001
0000
0010
2200
0000
0000
3300
1010
0000
0110
0000
0101
0000
,
0110
1000
0000
0101
0000
0010
2002
0000
0000
3003
0011
0000
0101
0000
1001
0000
,
0110
1000
0000
0101
0000
0010
1100
0010
0000
0011
0000
1000
0110
0000
0101
0000
,
1001
0000
0000
2200
0000
0000
3300
0000
1000
1000
0100
0100
0010
0010
0001
0001
,
0110
1000
0000
0110
0000
0001
0010
0100
0010
0100
1000
0100
0010
0001
0010
0100
,
0011
0100
0000
1010
0000
0100
0010
0001
0010
0100
0010
0001
0010
0100
1000
0100
,
0011
0100
0010
2000
0000
0010
3100
0010
1100
0001
0010
0200
0000
0010
1300
0010
,
1001
0000
0100
0101
0000
0100
1100
0000
0110
0000
0001
0011
0000
0100
0101
0000
,
1001
0010
0000
0011
0000
0100
0010
0100
1000
0100
0010
0001
0100
0010
0001
0010
,
1100
0010
0000
0101
0000
0010
0100
0010
1000
0100
0010
0001
0010
0100
1000
0100
,
0011
0100
1000
0200
0000
0010
0301
0010
0101
1000
0100
0020
0000
0100
0031
0100
,
0011
0000
0000
0000
0100
0000
0110
0000
0000
0000
1000
0000
1100
0000
0000
0000
0100
0010
0100
0000
0100
0000
0100
0000
0100
0000
0100
0000
0100
0000
0100
0000
,
0110
0001
0100
0001
0010
0001
0100
0001
1000
0001
0100
0001
0010
1001
0100
0001
,
1010
0100
0001
0100
0010
0100
1000
0100
0010
0100
0001
0100
0010
0101
1000
0100
,
0011
1000
0100
1000
0010
1000
0001
1000
0010
1000
0100
1000
0010
1100
0001
1000
,
0110
0000
0001
0000
0010
0000
0100
0000
1001
0000
0100
0000
0010
0000
0001
0000
1010
0000
0000
0000
1010
0000
0000
0000
1000
0001
1000
0000
1000
0000
1000
0000
,
1001
0010
0000
1001
0000
0100
0022
0000
0000
0033
0101
0000
0110
0000
1010
0000
,
1001
0010
0000
1100
0000
0010
0202
0000
0000
0303
1100
0000
0110
0000
0011
0000
,
1001
0100
0000
0011
0000
0100
1010
0100
0000
0011
0000
0100
1100
0000
0110
0000
,
1001
0000
0000
0202
0000
0000
0303
0000
0010
0010
0100
0100
0001
0001
1000
1000
,
0011
0100
0000
1001
0000
0010
2200
0000
0000
3300
0101
0000
0110
0000
1001
0000
,
0101
0010
0000
1001
0000
0100
0022
0000
0000
0033
1010
0000
1001
0000
0011
0000
,
1010
0100
0000
0011
0000
0100
1001
0100
0000
0101
0000
0010
0110
0000
1001
0000
,
0011
0000
0000
0220
0000
0000
0330
0000
0100
0100
0010
0010
0001
0001
0010
0010
,
1100
0010
0000
1010
0000
0100
0010
0001
0010
0100
0010
0100
1000
0100
0010
0001
,
0110
1000
0000
0101
0000
0010
0100
1000
0100
0010
0001
0100
0010
0100
1000
0100
,
0011
0100
1000
0200
0000
0010
1300
0010
1100
0010
0001
0020
0000
0100
1030
0100
,
0011
0000
0100
0110
0000
1000
1100
0000
0101
0000
0010
0110
0000
1000
1100
0000
,
1010
0100
0000
0011
0000
0100
0010
0100
1000
0100
0010
0001
0010
0100
1000
0100
,
1001
0010
0000
0100
1000
0100
0010
0100
0010
0001
0010
0100
0010
0100
1000
0100
,
1010
0001
0010
2000
0000
0010
3100
0010
1001
0010
0100
0020
0000
0100
0031
0100
,
0011
0000
0000
0000
0100
0000
0110
0000
0000
0000
0001
0000
1001
0000
0000
0000
0001
1000
0001
0000
0001
0000
0001
0000
0001
0000
0001
0000
0001
0000
0001
0000
,
1001
0100
0001
0100
0010
0100
1000
0100
0010
0100
0001
0100
0010
1100
0001
0100
,
0011
1000
0010
1000
0100
1000
0010
1000
0001
1000
0010
1000
0100
1001
0010
1000
,
0110
0001
1000
0001
0100
0001
0010
0001
0100
0001
1000
0001
0100
1001
0010
0001
,
1100
0010
0100
0010
0101
0010
1000
0100
0011
0000
0011
0000
0101
0000
1001
0000
;

//---------------dance-single - ----------------
#NOTES:
     dance-single:
     :
     Medium:
     9:
     0.696,0.577,0.441,0.358,0.626,342.000,37.000,30.000,0.000,0.000:


1000
0100
0010
0001
0010
0100
1000
0100
,
0010
0100
1000
0100
0010
0100
0010
0001
,
0010
0100
0010
0001
0010
0100
1000
0100
,
1001
0000
0100
0000
0010
0000
0100
0000
1001
0000
1001
0000
0010
0100
0010
0100
,
0010
0001
0000
0010
0000
0100
2000
0000
0000
0000
3100
0000
0010
0000
0001
0000
,
0010
0100
0000
1000
0000
0100
0002
0000
0000
0000
0013
0000
0100
0000
0001
0000
,
0010
0100
0000
2000
0000
0000
3100
0010
0000
0002
0000
0000
0013
0000
0100
0000
,
0010
0000
0000
0220
0000
0330
0000
0000
0001
0000
0010
0000
0100
0000
1000
0000
,
1100
0000
0000
0010
0000
0100
0020
0000
0030
0000
0010
0000
0100
0000
1000
0000
,
0001
0100
0000
0010
0000
1000
0200
0000
0300
0000
0100
0000
0010
0000
0001
0000
,
0010
0100
0000
0010
0000
0000
1000
0100
0000
1000
0000
0000
1100
0000
0100
0000
,
0010
0000
0000
0202
0000
0000
0303
0000
1000
0000
0100
0000
0010
0000
0001
0000
,
0001
0010
0000
0001
0000
0010
0000
0002
0000
0000
0013
0000
0001
0000
0010
0000
,
0100
0010
0000
0100
0000
0010
0000
0200
0000
0000
0310
0000
0100
0000
0010
0000
,
1000
0100
1000
0100
0000
0000
0000
0000
0001
0010
0001
0010
0000
0000
0000
0000
,
1001
0000
0000
0101
0000
0000
0110
0000
0100
0000
0000
1010
0000
0000
0101
0000
,
1000
0100
0000
1000
0000
0100
0000
2000
0000
0000
3100
0000
1000
0000
0100
0000
,
0001
1000
0000
0001
0000
1000
0000
0002
0000
0000
1003
0000
0001
0000
1000
0000
,
0010
0100
0010
0100
0000
0000
0000
0000
0001
1000
0001
1000
0000
0000
0000
0000
,
0110
0000
0000
0011
0000
0000
1100
0000
0100
0000
0000
0110
0000
0000
1001
0000
,
0010
0100
1000
0100
0010
0001
0010
0100
,
0010
0001
0010
0100
1000
0100
0010
0100
,
1000
0100
0010
0100
0010
0001
0010
0100
,
1001
0000
0100
0000
0001
0000
0100
0000
1100
0000
1100
0000
0001
0100
0001
0100
,
0010
1000
0000
0010
0000
0100
0020
0000
0030
0000
0010
0000
0100
0000
1000
0000
,
0010
0100
0000
0001
0000
0010
2000
0000
3000
0000
1000
0000
0100
0000
0010
0000
,
0100
0010
0000
0002
0000
0000
0013
0100
0000
2000
0000
0000
3100
0000
0010
0000
,
0011
0000
0000
0220
0000
0000
0330
0000
1000
0000
0100
0000
0010
0000
0001
0000
,
1000
0010
0000
0100
0000
0001
0020
0000
0000
0000
0130
0000
0001
0000
0010
0000
,
0100
0010
0000
0001
0000
0010
0200
0000
0000
0000
1300
0000
0100
0000
0010
0000
,
0100
0010
0000
0002
0000
0000
0013
0100
0000
0020
0000
0000
0130
0000
1000
0000
,
1100
0000
0000
2002
0000
0000
3003
0000
0001
0000
0010
0000
0100
0000
1000
0000
,
0010
0100
0000
0010
0000
0100
0000
0020
0000
0000
0130
0000
0010
0000
0100
0000
,
0001
0100
0000
0001
0000
0100
0000
0002
0000
0000
0103
0000
0001
0000
0100
0000
,
0010
0100
0010
0100
0000
0000
0000
0000
1000
0100
1000
0100
0000
0000
0000
0000
,
1100
0000
0000
1001
0000
0000
0011
0000
0010
0000
0000
0110
0000
0000
1100
0000
,
0010
1000
0000
0010
0000
1000
0000
0020
0000
0000
1030
0000
0010
0000
1000
0000
,
0010
0001
0000
0010
0000
0001
0000
0020
0000
0000
0031
0000
0010
0000
0001
0000
,
1000
0001
1000
0001
0000
0000
0000
0000
0010
0100
0010
0100
0000
0000
0000
0000
,
1001
0000
0000
0101
0000
0000
0110
0000
0100
0000
0000
1100
0000
0000
0110
0000
,
0001
0010
0100
1000
0100
0010
0100
1000
,
0100
0010
0100
0010
0001
0010
0100
1000
,
0001
0100
0010
0100
1000
0100
0010
0001
,
1010
0000
0100
0000
0010
0000
0001
0000
0110
0000
0110
0000
0010
0100
0010
0100
,
0010
0000
0000
0000
;
